» » Lava - The Rhythm Of Love

Lava - The Rhythm Of Love mp3 play

Bass: Rolf Graf Drums: Per Hillestad Guitar: Svein Dag Hauge Keyboards: Geir Langslet Vocal: Egil Eldøen Choir: Thought It Was Members From Oslo Gospel.

Слушайте Лава (Lava) и скачивайте бесплатно в формате mp3 прямо сейчас, без кодов, смс и регистации.

Lava (11) ‎– The Rhythm Of Love. 이블: Preservation Records (2) ‎– P016. 식: CD, Album, Reissue. Arranged By – Rolf Graf, Tore W. AasConductor – Tore W. AasLyrics By – David ChocronMusic By – Rolf Graf. 4. Transition Man. Brass – Rolf GrafKeyboards – Eythor GunnarssonMusic By, Lyrics By – Svein Dag HaugeOrgan – Jens Bugge Wesseltoft Programmed By – Svein Dag Hauge.

Крутой фильм который вы могли пропустить!

LAVA Rhythm of Love is a fantastic 80's/early 90 westcoast rock album. I can definately see some comparison between Lava and Toto on this album at least (Time gallery remind me more of a rocky Bogart co. maybe but never really of Lava). Lava have said before that toto are a big influential group for them. The thing is that LAVA are just as stunning on their instruments and totally a band of their own who can do so many different styles of music with brilliance as they have shown if you look at their albums over the years. This may be their best as an 'album'.

Rhythm of Love is the fifth album by American R&B/soul singer Anita Baker, released in 1994. The album peaked at on the US Billboard 200 and on the Billboard Top R&B/Hip Hop chart and was certified double platinum, giving Baker her fourth platinum selling album. This is the first album since 1983's The Songstress by Baker not to be produced by longtime collaborator Michael J. Powell, who had agreed to split the arrangement after the release of Baker's 1990 album, Compositions.

LAVA’s The Rhythm Of Love is a must have for any TOTO fan, and a more than recommended listen to all pure AOR aficionados out there. 01 – Somebody Like You 02 – You’ve Taken My Heart Away 03 – The Rhythm Of Love 04 – Transition Man 05 – Artificial Love 06 – Heartache 07 – Lovers United 08 – Take A Look At These Eyes 09 – She’s The One 10 – I Guess You Broke My Heart.

Tracklist

Somebody Like You 5:04
You've Taken My Heart Away 4:30
The Rhythm Of Love 4:23
Transition Man 3:58
Artificial Love 4:56
Heartache 4:21
Lovers United 4:24
Take A Look At These Eyes 4:14
She's The One 4:09
I Guess You Broke My Heart 6:06

Versions

Category Artist Title (Format) Label Category Country Year
842 682-2 Lava The Rhythm Of Love ‎(CD, Album) Mercury 842 682-2 Scandinavia 1990
842 682-4 Lava The Rhythm Of Love ‎(Cass, Album) Mercury 842 682-4 Scandinavia 1990
842 682-1 Lava The Rhythm Of Love ‎(LP, Album) Mercury 842 682-1 Scandinavia 1990
P016 Lava The Rhythm Of Love ‎(CD, Album, RE) Preservation Records P016 Norway 2017


Lava  - The Rhythm Of Love mp3 play

Performer: Lava

Title: The Rhythm Of Love

Country: Scandinavia

Date of release: 1990

Style: Pop Rock

Genre: Jazz / Rock / Sincere music / Pop

Size MP3: 1793 mb

Size FLAC: 1780 mb

Rating: 4.8 / 5

Votes: 841

Other Formats: AAC AU VOX ADX ASF VQF MP2

Related to Lava - The Rhythm Of Love Albums

Arthunter
foobar2000 1.3.17 / Dynamic Range Meter 1.1.1log date: 2019-02-06 20:55:02--------------------------------------------------------------------------------Analyzed: Lava / The Rhythm Of Love [SC 1990 CD]--------------------------------------------------------------------------------DR Peak RMS Duration Track--------------------------------------------------------------------------------DR14 -1.60 dB -18.37 dB 5:04 01-Somebody Like YouDR12 -1.60 dB -17.07 dB 4:30 02-You've Taken My Heart AwayDR14 0.00 dB -17.97 dB 4:24 03-The Rhythm Of LoveDR17 -0.12 dB -19.67 dB 3:58 04-Transition ManDR15 0.00 dB -16.75 dB 4:56 05-Artificial LoveDR13 0.00 dB -16.31 dB 4:21 06-HeartacheDR14 0.00 dB -17.68 dB 4:24 07-Lovers UnitedDR14 -0.20 dB -18.86 dB 4:14 08-Take A Look At These EyesDR14 0.00 dB -17.69 dB 4:10 09-She's The OneDR14 -0.02 dB -17.43 dB 6:07 10-I Guess You Broke My Heart--------------------------------------------------------------------------------Number of tracks: 10Official DR value: DR14Samplerate: 44100 HzChannels: 2Bits per sample: 16Bitrate: 847 kbpsCodec: ALAC================================================================================
Arthunter
foobar2000 1.3.17 / Dynamic Range Meter 1.1.1log date: 2019-02-06 20:55:02--------------------------------------------------------------------------------Analyzed: Lava / The Rhythm Of Love [SC 1990 CD]--------------------------------------------------------------------------------DR Peak RMS Duration Track--------------------------------------------------------------------------------DR14 -1.60 dB -18.37 dB 5:04 01-Somebody Like YouDR12 -1.60 dB -17.07 dB 4:30 02-You've Taken My Heart AwayDR14 0.00 dB -17.97 dB 4:24 03-The Rhythm Of LoveDR17 -0.12 dB -19.67 dB 3:58 04-Transition ManDR15 0.00 dB -16.75 dB 4:56 05-Artificial LoveDR13 0.00 dB -16.31 dB 4:21 06-HeartacheDR14 0.00 dB -17.68 dB 4:24 07-Lovers UnitedDR14 -0.20 dB -18.86 dB 4:14 08-Take A Look At These EyesDR14 0.00 dB -17.69 dB 4:10 09-She's The OneDR14 -0.02 dB -17.43 dB 6:07 10-I Guess You Broke My Heart--------------------------------------------------------------------------------Number of tracks: 10Official DR value: DR14Samplerate: 44100 HzChannels: 2Bits per sample: 16Bitrate: 847 kbpsCodec: ALAC================================================================================